#TITLE:Dear Arch,;
#SUBTITLE:;
#ARTIST:djsmalls feat. MSTalkit;
#TITLETRANSLIT:;
#SUBTITLETRANSLIT:;
#ARTISTTRANSLIT:;
#CREDIT:;
#BANNER:Dear Arch - bn.png;
#BACKGROUND:Dear Arch - bg.png;
#LYRICSPATH:;
#CDTITLE:DJS CD.png;
#MUSIC:Dear Arch (srsly).mp3;
#OFFSET:-2.480;
#SAMPLESTART:24.520;
#SAMPLELENGTH:15.000;
#SELECTABLE:YES;
#BPMS:0.000=150.011,4.000=3000.000,377.000=3013.220,392.000=2997.600,1020.000=53.011,1024.000=3000.020,1032.000=3000.000,1072.000=151.011,1076.000=3000.020,1344.625=2926.796;
#STOPS:1032.000=2.680
,1060.000=0.800
,1067.750=5.000
;
#BGCHANGES:;
// cache tags:
#FIRSTBEAT:4.000;
#LASTBEAT:1268.000;
#SONGFILENAME:Songs/Music V.I.P ^_^/Dear Arch/Dear Arch.sm;
#HASMUSIC:1;
#HASBANNER:1;
#MUSICLENGTH:46.684;
// end cache tags

//---------------dance-single - ----------------
#NOTES:
     dance-single:
     :
     Hard:
     40:
     1.000,1.000,1.000,1.000,1.000,3456.000,2764.000,2117.000,0.000,2081.000:
0000
0000
0000
0000
,
1001
1001
1001
1001
1001
1001
1001
1001
,
1001
1001
1001
1001
1001
1001
1001
1001
,
1001
1001
1001
1001
1001
1001
1001
1001
,
1001
1001
1001
1001
1001
1001
1001
1001
,
1001
1001
1001
1001
1001
1001
1001
1001
,
1001
1001
1001
1001
1001
1001
1001
1001
,
0110
0011
0110
1100
0110
0101
0110
1100
,
0011
1110
0100
0011
1100
0011
1110
1111
,
1111
1111
0111
1111
1111
0101
1111
0011
,
1100
0011
1110
0111
1111
1111
1111
1111
,
1111
0111
1011
1111
1110
1111
0111
1111
,
0111
1111
0111
1110
1011
1110
1101
1110
,
0110
0011
1100
0110
1101
0011
1100
0111
,
1110
1111
1111
1111
1111
0111
1110
0111
,
1110
0101
0110
1010
0110
0101
1001
1110
,
1111
1111
1111
1111
1111
0111
0111
2220
,
3330
0011
0111
1110
1110
0111
0111
0111
,
1110
0011
0111
1110
1110
0111
0111
1010
,
0111
1110
0111
1110
0111
1010
0111
1110
,
1110
0111
0110
0100
1000
0010
0110
0011
,
0111
1110
0111
0111
1110
0011
0111
0110
,
2002
3223
2332
3223
2332
3223
2332
3223
2332
3223
2332
3223
2332
3223
2332
3223
,
2332
3223
2332
3223
2332
3223
2332
3223
2332
3223
2332
3223
2332
3223
2332
3223
,
2332
3223
2332
3223
2332
3223
2332
3223
2332
3223
2332
3223
2332
3223
2332
3223
,
2332
3223
2332
3223
2332
3223
2332
3223
2332
3223
2332
3223
2332
3223
2332
3223
,
1331
0010
0100
1000
0100
0010
0001
0010
0100
1000
0100
0010
0001
1000
0100
0010
,
0001
0010
0100
1000
0001
0010
0100
1000
0200
0320
0031
0000
0011
0000
1111
1000
,
0111
0111
1110
0111
0001
0011
1111
1011
1111
1111
1111
1111
0001
0001
0100
0000
,
0000
0111
1111
0000
0000
0000
1111
1111
0011
1011
1011
1111
1111
1111
1111
1111
,
0111
1111
0111
0011
0011
0111
0111
0111
1110
0110
0110
0110
0110
1100
1100
1100
,
1100
1100
0110
0110
0110
0011
0011
0011
0110
0110
0110
0011
0011
0110
0110
0110
,
0110
1100
1100
1010
1010
0110
0110
0110
0110
0110
0110
0011
0011
0110
0110
0110
,
1010
1010
1010
1010
1010
1010
1010
0110
0110
0110
0011
0101
0101
0101
0101
0110
,
0110
0110
1100
1100
1100
0110
0110
0100
0100
0010
1110
1100
0110
0112
0003
0000
,
0000
1011
1110
1110
1110
1110
1110
0011
0111
0111
0111
0111
1110
0110
1110
0011
,
0011
0111
0021
0032
0003
0001
0011
0110
1110
0111
0111
0111
0111
0111
0111
0111
,
0111
0111
0111
0111
0110
1110
1110
1110
1110
1110
1110
1110
1110
1110
1110
1110
,
1110
1000
1001
1001
1001
1001
1001
1001
1001
1001
1001
1001
1001
1001
0110
0110
,
0110
0110
0110
0110
0111
1101
1111
1110
1101
1101
1111
0111
0111
0111
1111
1111
,
1111
1111
1111
1111
1111
1111
1111
1111
1111
1011
1111
1111
1111
1111
1111
0111
,
1111
1111
1111
1111
1111
1111
1111
1011
1111
1111
1111
1011
1111
1011
0011
0011
,
0011
0011
0011
0110
0110
0110
0110
0110
0011
0111
0111
0111
1001
1101
1101
1111
,
0011
0111
1111
1110
0011
0011
1112
0123
1130
1110
0010
1001
0110
0010
0011
1010
,
0100
1002
0203
0320
0231
0301
0210
0320
0031
0210
0310
0110
0110
0010
0110
0112
,
0113
0000
0101
0000
0101
0000
0001
0000
0001
0000
1001
0000
0110
0100
0110
0000
0002
0000
0023
0000
0030
0000
0010
0000
0110
0000
0111
0000
0110
0000
1110
0000
,
1110
1110
1110
1110
1110
1110
0011
0111
0111
1110
1110
0011
0111
1110
1110
1011
,
0111
1110
1011
0111
1011
1110
1110
1110
1110
1110
1111
0111
0111
0111
0111
0111
,
1110
1110
1110
0011
0011
0011
0100
0100
1000
1000
0110
0110
0110
0011
0011
0011
,
0111
0111
0111
0111
1010
1110
1110
1110
1100
0011
0111
0111
0010
1110
1110
0110
,
0011
0111
0111
0111
0111
0111
0111
1110
1110
0111
1110
0011
1110
0111
0000
2022
,
3033
0111
1111
0011
0111
0111
0111
0111
1110
1110
1110
0111
1110
0111
0111
0111
,
0111
0101
0100
0111
1110
1110
1110
1110
0011
0011
1010
1110
1110
0011
0111
0111
,
0111
1110
1011
0011
0011
1110
1110
1110
0111
1011
0111
1110
1110
0111
1110
0111
,
1110
0111
1011
0111
1101
0011
1100
0111
1011
1011
1101
0011
0011
1011
1100
0111
,
1001
0010
0100
1000
0100
0010
0001
2000
,
3200
0310
0001
2100
3010
0011
0111
0111
,
1100
0110
1110
0200
0311
0111
1110
0111
,
1110
0111
0111
1110
0111
1110
0111
1010
0111
0111
1110
1110
0011
1110
0011
1110
,
0101
1110
0111
1110
0111
1110
0000
0111
0111
0111
0111
1110
1110
1110
1110
0011
,
0111
0001
0111
0110
1111
1111
1111
1111
1111
1111
0111
1111
1111
1111
0111
1111
,
0111
1111
0111
0011
0111
0111
1111
1111
1111
1111
0011
1110
1110
0220
1330
0011
,
1110
0001
0010
0100
1000
0001
0010
0100
,
1000
0100
0010
0001
1000
0100
0010
0001
,
1001
0111
1110
0110
0011
0110
1110
0111
0011
1110
0111
1110
0111
0001
0011
0100
,
0010
1110
0111
0110
0011
1111
1110
0111
1110
0011
0111
1110
0011
0111
1110
0011
,
0110
1100
0010
0111
0111
1110
0111
0111
,
1110
0001
0111
1110
0110
1100
0011
1100
,
0011
1100
0110
0101
0110
1111
0011
0110
0111
0111
1110
1110
1110
1010
0111
0111
,
0011
0011
1112
0113
0111
1111
1111
1111
1111
1111
1111
1111
1100
0111
1110
0222
,
0333
1110
0001
0111
1110
1110
0111
0111
0111
1110
1110
0011
0011
0111
1010
1110
,
0111
1110
0111
1010
0111
0101
1110
0111
0010
1110
0111
1110
0001
0111
1110
0011
,
1000
0100
0010
0001
0010
0102
0003
2221
,
3330
0011
1110
1110
0111
1110
0111
0111
,
1100
0110
0111
1110
0111
1110
1110
1110
0110
0111
1110
1110
0111
0011
0111
1110
,
0011
1110
0111
0111
1110
0111
0111
1010
0111
0111
1110
0111
0111
0001
1110
0111
,
1110
0111
1110
1110
0110
0011
0111
1110
,
0111
1110
0111
0111
1110
0111
1110
0111
,
1110
0001
0011
0110
1110
1010
0110
0101
,
0011
0110
1110
0011
0111
1110
2101
3101
,
0111
1101
1111
1111
1111
0011
0011
1111
,
1111
1111
1111
1111
0111
0111
0111
2110
,
3110
1110
0111
1110
0111
1110
0111
1110
,
0111
0111
1111
1111
1111
1111
1111
1111
,
1111
0111
0111
0111
0111
0110
0110
0110
,
0020
1030
2100
3100
1111
0001
0110
0010
,
1000
0100
0010
0001
0010
0100
1000
0100
,
0020
0031
2000
3100
0010
0001
0010
0100
,
1000
0100
0010
0001
1000
0100
0010
0001
,
0010
0100
1000
0100
0010
0001
1000
0100
,
0010
0001
0010
0100
0010
0001
0010
0100
,
1000
1000
1000
1000
1000
1000
1000
1000
,
1100
0100
0100
0100
0100
0100
0100
0100
,
0110
0010
0010
0010
0010
0010
0010
0010
,
0011
0001
0001
0001
0001
0001
0001
0001
,
1010
1110
1110
0000
0100
0111
0011
1011
,
1111
1011
1111
1111
1111
1111
1111
1221
,
1330
1110
1110
1110
0111
0011
0011
0011
,
0110
0110
0110
1100
1100
0110
0110
0111
,
0111
1001
1110
1110
0111
1110
0111
0011
,
1110
0111
1110
0111
1110
0110
1110
0111
1110
0111
0111
0111
0111
2202
3303
0111
,
1111
1111
1111
1111
1111
1111
0011
0111
0111
0011
0112
0113
0011
2110
3001
0110
,
0000
0000
0000
0000
,
0000
0000
0000
0000
,
0000
0000
0000
0000
,
0000
0000
0000
0000
,
0110
1100
0110
0011
1110
0110
0111
1110
0111
1110
0011
1110
0111
1010
1110
0111
,
0101
1110
0111
1110
0111
1110
0111
0001
1110
0111
1110
0111
1110
0111
1110
0111
,
0000
0000
0000
0000
,
0110
1110
0011
0101
1110
0011
1110
0111
1110
0111
1110
0011
0111
0111
1110
0111
,
1100
1100
1100
1100
1100
1100
1100
1100
,
1100
1100
1100
1100
1100
1100
1100
1100
,
1100
1100
1100
1100
1100
1100
1100
1100
,
0110
0110
0110
0110
0110
0110
0110
0110
,
0110
0110
0110
0110
0110
0110
0110
0110
,
0110
0110
0110
0110
0110
0110
0110
0110
,
0110
0110
0110
0110
0110
0110
0110
0011
,
0011
0011
0011
0011
0011
0011
0011
0011
,
0011
0011
0011
0011
0011
0011
0011
0011
,
0110
0101
1110
0111
0011
0101
1111
0111
,
0101
0111
0111
0111
1010
1110
0212
1313
,
2002
3223
2332
3223
2332
3223
2332
3223
2332
3223
2332
3223
2332
3223
2332
3223
,
2332
3223
2332
3223
2332
3223
2332
3223
2332
3223
2332
3223
2332
3223
2332
3223
,
2332
3223
2332
3223
2332
3223
2332
3223
2332
3223
2332
3223
2332
3223
2332
3223
,
2332
3223
2332
3223
2332
3223
2332
3223
2332
3223
2332
3223
2332
3223
2332
3223
,
2332
3223
2332
3223
2332
3223
2332
3223
2332
3223
2332
3223
2332
3223
2332
3223
,
2332
3223
2332
3223
2332
3223
2332
3223
2332
3223
2332
3223
2332
3223
2332
3223
,
2332
3223
2332
3223
2332
3223
2332
3223
2332
3223
2332
3223
2332
3223
2332
3223
,
2332
3223
2332
3223
2332
3223
2332
3223
2332
3223
2332
3223
2332
3223
2332
3223
,
2332
3223
2332
3223
2332
3223
2332
3223
2332
3223
2332
3223
2332
3223
2332
3223
,
2332
3223
2332
3223
2332
3223
2332
3223
2332
3223
2332
3223
2332
3223
2332
3223
,
2332
3223
2332
3223
2332
3223
2332
3223
2332
3223
2332
3223
2332
3223
2332
3223
,
2332
3223
2332
3223
2332
3223
2332
3223
2332
3223
2332
3223
2332
3223
2332
3223
,
2332
3223
2332
3223
2332
3223
2332
3223
2332
3223
2332
3223
2332
3223
2332
3223
,
2332
3223
2332
3223
2332
3223
2332
3223
2332
3223
2332
3223
2332
3223
2332
3223
,
2332
3223
2332
3223
2332
3223
2332
3223
2332
3223
2332
3223
2332
3223
2332
3223
,
2332
3223
2332
3223
2332
3223
2332
3223
2332
3223
2332
3223
2332
3223
2332
3223
,
2332
3223
2332
3223
2332
3223
2332
3223
2332
3223
2332
3223
2332
3223
2332
3223
,
2332
3223
2332
3223
2332
3223
2332
3223
2332
3223
2332
3223
2332
3223
2332
3223
,
2332
3223
2332
3223
2332
3223
2332
3223
2332
3223
2332
3223
2332
3223
2332
3223
,
2332
3223
2332
3223
2332
3223
2332
3223
2332
3223
2332
3223
2332
3223
2332
3223
,
2332
3223
2332
3223
2332
3223
2332
3223
2332
3223
2332
3223
2332
3223
2332
3223
,
2332
3223
2332
3223
2332
3223
2332
3223
2332
3223
2332
3223
2332
3223
2332
3223
,
2332
3223
2332
3223
2332
3223
2332
3223
2332
3223
2332
3223
2332
3223
2332
3223
,
2332
3223
2332
3223
2332
3223
2332
3223
2332
3223
2332
3223
2332
3223
2332
3223
,
2332
3223
2332
3223
2332
3223
2332
3223
2332
3223
2332
3223
2332
3223
2332
3223
,
2332
3223
2332
3223
2332
3223
2332
3223
2332
3223
2332
3223
2332
3223
2332
3223
,
2332
3223
2332
3223
2332
3223
2332
3223
2332
3223
2332
3223
2332
3223
2332
3223
,
2332
3223
2332
3223
2332
3223
2332
3223
2332
3223
2332
3223
2332
3223
2332
3223
,
2332
3223
2332
3223
2332
3223
2332
3223
2332
3223
2332
3223
2332
3223
2332
3223
,
2332
3223
2332
3223
2332
3223
2332
3223
2332
3223
2332
3223
2332
3223
2332
3223
,
2332
3223
2332
3223
2332
3223
2332
3223
2332
3223
2332
3223
2332
3223
2332
3223
,
2332
3223
2332
3223
2332
3223
2332
3223
2332
3223
2332
3223
2332
3223
2332
3223
,
2332
3223
2332
3223
2332
3223
2332
3223
2332
3223
2332
3223
2332
3223
2332
3223
,
2332
3223
2332
3223
2332
3223
2332
3223
2332
3223
2332
3223
2332
3223
2332
3223
,
2332
3223
2332
3223
2332
3223
2332
3223
2332
3223
2332
3223
2332
3223
2332
3223
,
2332
3223
2332
3223
2332
3223
2332
3223
2332
3223
2332
3223
2332
3223
2332
3223
,
1330
0100
0010
0001
1000
0100
0010
0001
,
1000
0100
0010
0001
1000
0100
0010
0001
,
1000
0100
0010
0001
1000
0100
0010
0001
,
1000
0100
0010
0001
1000
0100
0010
0001
,
1000
0100
0010
0001
1000
0100
0010
0001
,
1000
0100
0010
0001
1000
0100
0010
0001
,
1000
0100
0010
0001
1000
0100
0010
0001
,
1000
0100
0010
0001
1000
0100
0010
0001
,
1000
0100
0010
0001
1000
0100
0010
0001
,
1000
0100
0010
0001
1000
0100
0010
0001
,
1000
0100
0010
0001
1000
0100
0010
0001
,
1000
0100
0010
0001
1000
0100
0010
0001
,
1000
0100
0010
0001
1000
0100
0010
0001
,
1000
0100
0010
0001
1000
0100
0010
0001
,
1000
0100
0010
0001
1000
0100
0010
0001
,
1000
0100
0010
0001
1000
0100
0010
0001
,
1000
0100
0010
0001
1000
0100
0010
0001
,
1000
0100
0010
0001
1000
0100
0010
0001
,
1000
0100
0010
0001
0010
0100
1000
0100
,
0010
0001
0010
0100
1000
0100
0010
0001
,
0010
0100
1000
0100
0010
0001
0010
0100
,
1000
0100
0010
0001
1000
0100
0010
0001
,
0010
0100
1000
0001
0010
0100
1000
0100
,
0010
0001
1000
0100
0010
0001
0010
0100
,
1000
0001
0010
0100
1000
0100
0010
0001
,
1100
0111
1110
1011
1111
0111
1111
0101
,
1111
0011
0111
0111
1111
1110
1110
1111
,
1110
0011
1110
0111
1111
0111
1111
1111
,
0111
1011
1110
0111
1110
1110
0111
0111
,
0110
0110
0111
1011
0111
1111
1111
1111
,
1111
0000
0002
0013
0111
0111
1111
0110
,
1000
0100
0010
0001
0010
0100
1000
0100
,
0010
0001
1000
0100
0010
0001
0010
0100
,
0010
0001
0010
0100
1000
1000
0100
0010
,
0001
1000
1000
1000
1000
1000
0100
0100
,
0100
0010
0010
0001
0010
1100
1110
0002
,
2003
3222
0333
1011
1001
1110
0011
1011
,
0011
0111
0111
1111
1110
1011
0111
1110
,
0111
1110
0111
1100
1000
0100
0010
0001
,
0010
0100
1000
0011
1000
1000
0100
0001
,
1110
1110
0001
0110
0010
0100
1000
0110
,
0100
0111
1110
0001
0001
1000
1100
0100
,
0010
0011
0001
0010
0100
1000
1000
0100
,
0010
0001
2000
3100
0010
0011
1110
1110
,
0011
0111
1100
0011
1110
0011
0111
1110
,
0110
1110
0111
0010
0100
1000
0001
0010
,
0100
1000
0100
0010
0111
1110
0011
1000
,
0010
0001
0001
0010
0100
0100
0001
0010
,
0100
0111
0110
1110
0011
0111
1110
0111
,
1110
0111
0111
0111
1110
1110
1110
0011
,
0111
1110
0111
0111
1110
1110
0111
0111
,
0111
0111
0111
1100
1100
1100
1111
1100
,
1110
1110
1100
1110
0110
0110
0110
0110
,
0011
0111
0100
0110
0110
0011
0011
0100
,
0100
1000
1100
0010
0011
2000
3100
0010
,
0001
0010
0100
1000
0100
0010
0001
1000
,
0100
0011
0011
0111
1110
1110
0011
0110
,
2002
3223
2332
3223
2332
3223
2332
3223
2332
3223
2332
3223
2332
3223
2332
3223
,
2332
3223
2332
3223
2332
3223
2332
3223
2332
3223
2332
3223
2332
3223
2332
3223
,
2332
3223
2332
3223
2332
3223
2332
3223
2332
3223
2332
3223
2332
3223
2332
3223
,
2332
3223
2332
3223
2332
3223
2332
3223
2332
3223
2332
3223
2332
3223
2332
3223
,
2332
3223
2332
3223
2332
3223
2332
3223
2332
3223
2332
3223
2332
3223
2332
3223
,
2332
3223
2332
3223
2332
3223
2332
3223
2332
3223
2332
3223
2332
3223
2332
3223
,
2332
3223
2332
3223
2332
3223
2332
3223
2332
3223
2332
3223
2332
3223
2332
3223
,
2332
3223
2332
3223
2332
3223
2332
3223
2332
3223
2332
3223
2332
3223
2332
3223
,
2332
3223
2332
3223
2332
3223
2332
3223
2332
3223
2332
3223
2332
3223
2332
3223
,
2332
3223
2332
3223
2332
3223
2332
3223
2332
3223
2332
3223
2332
3223
2332
3223
,
2332
3223
2332
3223
2332
3223
2332
3223
2332
3223
2332
3223
2332
3223
2332
3223
,
2332
3223
2332
3223
2332
3223
2332
3223
2332
3223
2332
3223
2332
3223
2332
3223
,
2332
3223
2332
3223
2332
3223
2332
3223
2332
3223
2332
3223
2332
3223
2332
3223
,
2332
3223
2332
3223
2332
3223
2332
3223
2332
3223
2332
3223
2332
3223
2332
3223
,
2332
3223
2332
3223
2332
3223
2332
3223
2332
3223
2332
3223
2332
3223
2332
3223
,
2332
3223
2332
3223
2332
3223
2332
3223
2332
3223
2332
3223
2332
3223
2332
3223
,
2332
3223
2332
3223
2332
3223
2332
3223
2332
3223
2332
3223
2332
3223
2332
3223
,
2332
3223
2332
3223
2332
3223
2332
3223
2332
3223
2332
3223
2332
3223
2332
3223
,
2332
3223
2332
3223
2332
3223
2332
3223
2332
3223
2332
3223
2332
3223
2332
3223
,
2332
3223
2332
3223
2332
3223
2332
3223
2332
3223
2332
3223
2332
3223
2332
3223
,
2332
3223
2332
3223
2332
3223
2332
3223
2332
3223
2332
3223
2332
3223
2332
3223
,
2332
3223
2332
3223
2332
3223
2332
3223
2332
3223
2332
3223
2332
3223
2332
3223
,
2332
3223
2332
3223
2332
3223
2332
3223
2332
3223
2332
3223
2332
3223
2332
3223
,
2332
3223
2332
3223
2332
3223
2332
3223
2332
3223
2332
3223
2332
3223
2332
3223
,
1331
1000
0001
1000
0001
1000
0001
1000
,
0001
1000
0001
1000
0001
1000
0001
1000
,
0001
1000
0001
1000
0001
1000
0001
1000
,
0001
1000
0001
1000
0001
1000
0001
1000
,
0010
0100
0010
0100
0010
0100
0010
0100
,
0010
0100
0010
0100
0010
0100
0010
0100
,
0010
0100
0010
0100
0010
0100
0010
0100
,
0010
0100
0010
0100
0010
0100
0010
0100
,
1000
0100
0010
0001
0010
0100
1000
0100
,
0010
0001
1000
0100
0010
0001
0010
0100
,
1000
0100
0010
0001
0010
0100
1000
0001
,
0010
0100
1000
0100
0010
0001
1000
0100
,
0010
0001
0010
0100
1000
0100
0010
0001
,
0010
0100
1000
0100
0010
0001
1000
0100
,
0010
0001
0010
0100
1000
0100
0010
0001
,
0010
0100
1000
0001
0010
0100
1000
0100
,
0010
0001
1000
0100
0010
0001
0010
0100
,
1000
0000
0000
0000
,
0100
1000
0100
0011
0010
0100
1000
0100
0010
0001
0010
0100
1000
0001
0010
0100
1000
0000
0110
0010
0001
0010
0100
1000
0100
0010
0001
0010
0100
1000
0001
0010
,
0100
1000
0100
0010
0001
0010
0100
1000
0011
0111
1110
1110
0111
0111
1111
1111
1111
0011
1111
0111
0111
0011
0111
1110
1110
1110
0111
1110
1110
0111
0111
1110
,
1110
0110
0111
0111
1110
0111
0111
1110
0111
0111
0010
1011
1110
0111
0101
0110
,
1110
1110
0111
0010
0111
1110
1110
0111
1110
0111
1110
0000
0111
1110
0001
1010
,
0101
0011
0111
1110
0111
1110
0111
0101
1100
0011
0110
0011
0110
1100
0110
0011
,
0110
0111
1101
0111
0111
0111
1111
1111
0111
0011
0112
1113
0110
1110
1100
1101
,
0111
0111
0111
0111
0101
1101
1101
0101
1101
1111
1110
1110
1110
1110
0111
0111
,
0111
0111
1111
1111
1111
1111
1111
0111
1110
0111
0111
0101
2001
3011
1110
0100
,
0111
1111
0111
1111
1111
1111
1111
1111
1111
0101
1110
0111
1101
0111
1110
0011
,
1001
0110
0011
0101
1110
0111
1110
0111
1110
0111
0010
0111
1110
0111
0111
1110
,
0011
1100
0110
0011
0011
0110
1100
0011
0101
0011
0110
1100
0110
0101
0110
1100
,
0011
0110
1100
0110
0101
0110
1100
0110
0001
0100
1010
0100
0011
0110
1100
0110
,
0011
0000
0000
0000
0000
0000
0000
0000
0000
0000
1000
0100
,
1010
0110
0011
1100
0110
1110
0101
1111
,
0110
0111
0111
0111
0111
0111
1111
0111
,
0101
0111
1111
0111
0111
0111
0111
1111
,
1110
1110
1110
1110
1110
0111
0111
0111
,
0111
1000
0110
0110
0110
0110
1100
1100
,
1100
1000
0110
0110
0011
0011
0100
0101
,
0101
0101
0101
0001
1010
1010
1010
1110
,
1001
0011
0111
1100
1110
0110
0011
0110
,
1001
0110
1110
1110
1110
1110
1110
1111
,
1111
0111
1111
0111
0111
1111
1111
1111
,
0110
0011
0110
1100
0110
0101
0110
1100
,
0011
1110
0100
0011
1100
0011
1110
1111
,
1111
1111
0111
1111
1111
0101
1111
0011
,
1100
0011
1110
0111
1111
1111
1111
1111
,
1111
0111
1011
1111
1110
1111
0111
1111
,
0111
1111
0111
1110
1011
1110
1101
1110
,
0110
0011
1100
0110
1101
0011
1100
0111
,
1110
1111
1111
1111
1111
0111
1110
0111
,
1110
0101
0110
1010
0110
0101
1001
1110
,
1111
1111
1111
1111
1111
0111
0111
2220
,
3330
0011
0111
1110
1110
0111
0111
0111
,
1110
0011
0111
1110
1110
0111
0111
1010
,
0111
1110
0111
1110
0111
1010
0111
1110
,
1110
0111
0110
0100
1000
0010
0110
0011
,
0111
1110
0111
0111
1110
0011
0111
0110
,
0110
0011
0110
1100
0110
0101
0110
1100
,
0011
1110
0100
0011
1100
0011
1110
1111
,
1111
1111
0111
1111
1111
0101
1111
0011
,
1100
0011
1110
0111
1111
1111
1111
1111
,
1111
0111
1011
1111
1110
1111
0111
1111
,
0111
1111
0111
1110
1011
1110
1101
1110
,
0110
0011
1100
0110
1101
0011
1100
0111
,
1110
1111
1111
1111
1111
0111
1110
0111
,
1110
0101
0110
1010
0110
0101
1001
1110
,
1111
1111
1111
1111
1111
0111
0111
2220
,
3330
0011
0111
1110
1110
0111
0111
0111
,
1110
0011
0111
1110
1110
0111
0111
1010
,
0111
1110
0111
1110
0111
1010
0111
1110
,
1110
0111
0110
0100
1000
0010
0110
0011
,
0111
1110
0111
0111
1110
0011
0111
0110
,
2100
3000
0000
0000
0000
0000
0000
0000
0000
0000
0000
0000
0000
0000
0000
0000
0000
0000
0000
0000
0000
0000
0000
0000
0101
0000
0000
0000
0000
0000
0000
0000
0000
0000
0000
0000
0000
0000
0000
0000
0000
0000
0000
0000
0000
0000
0000
0000
0011
0000
0000
0000
0000
0000
0000
0000
0000
0000
0000
0000
0000
0000
0000
0000
0000
0000
0000
0000
0000
0000
0000
0000
0011
0000
0000
0000
0000
0000
0000
0000
0000
0000
0000
0000
0000
0000
0000
0000
0000
0000
0000
0000
0000
0000
0000
0000
0011
0000
0000
0000
0000
0000
0000
0000
0000
0000
0000
0000
0000
0000
0000
0000
0000
0000
0000
0000
0000
0000
0000
0000
0011
0000
0000
0000
0000
0000
0000
0000
0000
0000
0000
0000
0000
0000
0000
0000
0000
0000
0000
0000
0000
0000
0000
0000
0110
0000
0000
0000
0000
0000
0000
0000
0000
0000
0000
0000
0000
0000
0000
0000
0000
0000
0000
0000
0000
0000
0000
0000
0110
0000
0000
0000
0000
0000
0000
0000
0000
0000
0000
0000
0000
0000
0000
0000
0000
0000
0000
0000
0000
0000
0000
0000
,
0110
0110
0111
0111
0111
0111
0110
1110
,
1110
1110
1110
1111
1111
1111
0111
1111
,
1111
0111
0111
1011
1011
1011
1111
1011
,
1111
0011
0011
1001
0100
0000
0110
1100
,
1010
1010
0010
0000
1100
0100
0000
1100
,
1100
0110
0110
0110
0110
0110
0011
0011
,
0011
0011
0011
0110
1100
1110
0111
0110
,
1001
0000
0000
0000
;
